The Weeknd - My Dear Melancholy, (2018) Mp3 (320kbps) [Hunter]
Download Movie
Loading...
Loading...
Loading...

Rampage 2018 720p NEW HDCAM X264 HQMic LLG

Seeders: 1
Leechers: 4
Completed: n/a

Age: 1 minute    Visits: 2    Category: Movies    Size: 1.2 GB

Posted by: LifeLongg    Comments: Read Comments

Info Hash: 8394C7DFB862E1E5B26007BBA8837EB2B44ACC5D



Now You Can Download Torrents From Kat.cr, Kickasstorrent Very Easily



Torrent Description







******************************Thumbnail:**********************



******************************Screenshots:********************

Screenshot 1

Screenshot 2

Screenshot 3

Screenshot 4

Screenshot 5

Screenshot 6

Screenshot 7

Screenshot 8

Screenshot 9

Screenshot 0

**************************************************************

Complete name : Rampage.2018.720p.NEW.HDCAM.X264.HQMic.LLG.mp4
Format : MPEG-4
Format profile : Base Media
Codec ID : isom (isom/iso2/avc1/mp41)
File size : 1.14 GiB
Duration : 1 h 40 min
Overall bit rate : 1 636 kb/s
Writing application : Lavf57.56.101

Video
ID : 1
Format : AVC
Format/Info : Advanced Video Codec
Format profile : [email protected]
Format settings : CABAC / 4 Ref Frames
Format settings, CABAC : Yes
Format settings, RefFrames : 4 frames
Codec ID : avc1
Codec ID/Info : Advanced Video Coding
Duration : 1 h 40 min
Bit rate : 1 500 kb/s
Width : 1 280 pixels
Height : 608 pixels
Display aspect ratio : 2.105
Frame rate mode : Constant
Frame rate : 23.976 (23976/1000) FPS
Color space : YUV
Chroma subsampling : 4:2:0
Bit depth : 8 bits
Scan type : Progressive
Bits/(Pixel*Frame) : 0.080
Stream size : 1.05 GiB (92%)

Audio
ID : 2
Format : MPEG Audio
Format version : Version 1
Format profile : Layer 3
Format settings : Joint stereo / MS Stereo
Codec ID : mp4a-6B
Duration : 1 h 40 min
Bit rate mode : Constant
Bit rate : 128 kb/s
Channel(s) : 2 channels
Sampling rate : 44.1 kHz
Compression mode : Lossy
Stream size : 91.6 MiB (8%)
Writing library : LAME3.99.5
Default : Yes
Alternate group : 1





Recently Added Torrents in Movies

Trackers List

tracker name
udp://tracker.opentrackr.org:1337/announce
udp://tracker.leechers-paradise.org:6969/announce
udp://tracker.pirateparty.gr:6969/announce
udp://tracker.coppersurfer.tk:6969/announce
udp://tracker.mg64.net:2710/announce
udp://tracker.zer0day.to:1337/announce

Sharing Widget


Download torrent
1.2 GB
Seeders: 1
Leechers: 4
Rampage 2018 720p NEW HDCAM X264 HQMic LLG