Download
Ideal Home (Movie)
Loading...
Loading...
Loading...

Black Panther 2018 NEW PROPER HD-TS X264 MP3 128Kbps LLG

Seeders: 2
Leechers: 59
Completed: n/a

Age: 32 minutes    Visits: 4    Category: Movies    Size: 1.2 GB

Posted by: LifeLongg    Comments: Read Comments

Info Hash: 3F6710DC471EFE64C4C6F60EFC5362C62CDF6072



Now You Can Download Torrents From Kat.cr, Kickasstorrent Very Easily



Torrent Description







******************************Thumbnail:**********************



******************************Screenshots:********************

Screenshot 1

Screenshot 2

Screenshot 3

Screenshot 4

Screenshot 5

Screenshot 6

Screenshot 7

Screenshot 8

Screenshot 9

Screenshot 0

**************************************************************

Complete name : Black.Panther.2018.NEW.PROPER.HD-TS.X264.MP3.128Kbps.LLG.mp4
Format : MPEG-4
Format profile : Base Media
Codec ID : isom (isom/iso2/avc1/mp41)
File size : 1.16 GiB
Duration : 2 h 4 min
Overall bit rate : 1 332 kb/s
Writing application : Lavf57.56.101

Video
ID : 1
Format : AVC
Format/Info : Advanced Video Codec
Format profile : [email protected]
Format settings : CABAC / 4 Ref Frames
Format settings, CABAC : Yes
Format settings, RefFrames : 4 frames
Codec ID : avc1
Codec ID/Info : Advanced Video Coding
Duration : 2 h 4 min
Bit rate : 1 200 kb/s
Width : 720 pixels
Height : 320 pixels
Display aspect ratio : 2.25:1
Frame rate mode : Constant
Frame rate : 23.976 (23976/1000) FPS
Color space : YUV
Chroma subsampling : 4:2:0
Bit depth : 8 bits
Scan type : Progressive
Bits/(Pixel*Frame) : 0.217
Stream size : 1.04 GiB (90%)


Audio
ID : 2
Format : MPEG Audio
Format version : Version 1
Format profile : Layer 3
Format settings : Joint stereo / MS Stereo
Codec ID : mp4a-6B
Duration : 2 h 4 min
Bit rate mode : Constant
Bit rate : 128 kb/s
Channel(s) : 2 channels
Sampling rate : 44.1 kHz
Compression mode : Lossy
Stream size : 114 MiB (10%)
Writing library : LAME3.99.5
Default : Yes
Alternate group : 1





Recently Added Torrents in Movies

Trackers List

tracker name
udp://tracker.opentrackr.org:1337/announce
udp://tracker.leechers-paradise.org:6969/announce
udp://tracker.pirateparty.gr:6969/announce
udp://tracker.coppersurfer.tk:6969/announce
udp://tracker.mg64.net:2710/announce
udp://tracker.zer0day.to:1337/announce

Sharing Widget


Download torrent
1.2 GB
Seeders: 2
Leechers: 59
Black Panther 2018 NEW PROPER HD-TS X264 MP3 128Kbps LLG